Ann Hampton Callaway - Blues In The Night (2006/2018) [Official Digital Download 24/192]

Posted By: SERTiL
Ann Hampton Callaway - Blues In The Night (2006/2018) [Official Digital Download 24/192]

Ann Hampton Callaway - Blues In The Night (2006/2018)
FLAC (tracks) 24-bit/192 kHz | Time - 55:22 minutes | 1.77 GB
Studio Master, Official Digital Download | Artwork: Front Cover

Making her Telarc debut, Ann Hampton Callaway comes out strong with Blues in the Night, featuring the title track she made famous in the musical 'Swing'. There are fiery original tunes such as 'I'm-Too-White to-Sing-the-Blues, ' 'Swingin'Away the Blues,' and 'Hip to Be Happy'. Ann brings in a cache of performers to guide her through the night including the DIVA Jazz Orchestra under the direction of Sherrie Maricle, her longtime accompanist Ted Rosenthal, Christian McBride, and Lewis Nash. Ann also performs a medley 'Stormy Weather / When the Sun Comes Out' with her sister Liz Callaway.

"…unique and soulful enough to make you reach for the 'repeat' button…" (Keyboard magazine)

"Overall this is Callaways most successful jazz venture on record to date." (Jazz Police)

"This is a highly recommended jazz vocals CD… Get a copy for yourself and a friend. Well worth your time!" (Jazz Review)

"Ann Hampton Callaway is not your typical jazz songbird. For one thing, she's an accomplished and award-winning songwriter, which is unusual in a field dominated by interpreters. But what's most surprising is her voice – it's a low alto instrument with a rich, dark, butterscotchy tone, and when she gets way down into her lower range the effect can be downright startling. Her latest album is a pleasing mixture of originals and standards, some performed with a small combo that includes bassist Christian McBride and drummer Lewis Nash, others with the all-female Diva Jazz Orchestra. The big-band pieces pack the most wallop, which is no surprise given both the quality of the band and the fact that the arrangements were written by the great Tommy Newsom; a powerhouse rendition of her own "Swingin' Away the Blues" opens the program with a serious bang, and her small-scale but equally powerful take on the chestnut "Blue Moon" carries the energy forward nicely. The rest of the album is a mix of tender ballads and vibrant uptempo numbers, most with a theme related to the blues, either in a mood of resigned acceptance ("Spring Can Really Hang You Up the Most," "Willow Weep for Me") or defiant opposition (the Callaway original "Hip to Be Happy"). She imbues most of these songs with a smoldering, torchy quality that brings new energy to old material, and her new songs stand up very nicely next to the established standards. Highly recommended." (Rick Anderson, AMG)

Tracklist:
1. Swingin' Away The Blues 03:29
2. Blue Moon 05:37
3. Spring Can Really Hang You Up The Most 06:19
4. Lover Come Back To Me 03:23
5. Stormy Weather / When The Sun Comes Out 05:13
6. The I'm-Too-White-To-Sing-The-Blues Blues 03:41
7. Willow Weep For Me 06:18
8. Hip To Be Happy 02:43
9. It's All Right With Me 05:55
10. No One Is Alone 04:32
11. Blues In The Night 04:50
12. The Glory Of Love 03:08

Personnel:
Ann Hampton Callaway, vocals
Ted Rosenthal, piano
Christian McBride, bass
Lewis Nash, drums
With special guests:
Liz Callaway, vocals
David Gilmore, guitar
Sherrie Maricle and the Diva Jazz Orchestra

Produced by Ann Hampton Callaway and Elaine Martone

Digitally remastered

foobar2000 1.3.7 / Dynamic Range Meter 1.1.1
log date: 2018-06-19 12:50:22

––––––––––––––––––––––––––––––––––––––––
Analyzed: Ann Hampton Callaway / Blues in the Night
––––––––––––––––––––––––––––––––––––––––

DR Peak RMS Duration Track
––––––––––––––––––––––––––––––––––––––––
DR13 -0.22 dB -15.77 dB 3:31 01-Swingin' Away the Blues
DR12 -0.66 dB -16.15 dB 5:40 02-Blue Moon
DR14 -2.35 dB -20.91 dB 6:23 03-Spring Can Really Hang You Up the Most
DR14 -0.22 dB -17.35 dB 3:24 04-Lover Come Back to Me
DR12 -1.36 dB -18.21 dB 5:15 05-Stormy Weather-When the Sun Comes Out
DR13 -0.72 dB -16.72 dB 3:44 06-The I'm-Too-White-To-Sing-The-Blues Blues
DR14 -2.16 dB -20.96 dB 6:21 07-Willow Weep for Me
DR15 -0.72 dB -18.49 dB 2:45 08-Hip to Be Happy
DR14 -2.54 dB -20.78 dB 5:55 09-It's All Right with Me
DR12 -5.59 dB -22.08 dB 4:36 10-No One Is Alone
DR13 -0.22 dB -17.16 dB 4:52 11-Blues in the Night
DR12 -0.22 dB -15.26 dB 3:03 12-The Glory of Love
––––––––––––––––––––––––––––––––––––––––

Number of tracks: 12
Official DR value: DR13

Samplerate: 192000 Hz
Channels: 2
Bits per sample: 24
Bitrate: 4842 kbps
Codec: FLAC
================================================================================


Thanks to the Original customer.
SitemapFishing Clash Premium APK | Download | مسلسلات رمضان 2016