The Orb - No Sounds Are Out Of Bounds (Deluxe) (2018) [Official Digital Download]

Posted By: SERTiL
The Orb - No Sounds Are Out Of Bounds (Deluxe) (2018) [Official Digital Download]

The Orb - No Sounds Are Out Of Bounds (Deluxe) (2018)
FLAC (tracks) 24-bit/44.1 kHz | Time - 120:51 minutes | 1.37 GB
Studio Master, Official Digital Download | Artwork: Front Cover

Album release date June 22nd. The release coincides with the 30th anniversary of The Orb (First Orb demos were recorded June 1988).New album features Holly Cook, Roger Eno, Youth, Jah Wobble, Guy Pratt (Pink Floyd) and Steve Hillage.London Roundhouse show on 23rd June (Not yet announced)July 22nd - LIVE Bluedot Festival ManchesterMORE FESTIVALS TO BE ANNOUNCED



Tracklist:

CD1
01. The End of the End (03:57)
02. Wish I Had a Pretty Dog (05:04)
03. Rush Hill Road (feat. Hollie Cook) (05:55)
04. Pillow Fight @ Shag Mountain (feat. Jah Wobble) (07:31)
05. Isle of Horns (05:26)
06. Wolfbane (03:24)
07. Other Blue Worlds (08:33)
08. Doughnuts Forever (feat. Jah Wobble) (03:30)
09. Drift (01:41)
10. Easy on the Onions (05:46)
11. Ununited States (04:24)
12. Soul Planet (15:11)

CD2
01. The End of the End (Instrumental) (04:07)
02. I Wish I Had a Pretty Dog (Instrumental) (05:14)
03. Rush Hill Road (Instrumental) (05:58)
04. Pillow Flight @ Shag Mountain (Instrumental) (07:36)
05. Isle of Horns (Instrumental) (05:26)
06. Wolfbane (Instrumental) (03:21)
07. Other Blue Worlds (Instrumental) (08:05)
08. Dougnuts Forever (Instrumental) (03:38)
09. Drift (Instrumental) (01:38)
10. Easy on the Onions (Instrumental) (05:47)
11. Ununited States (Instrumental) (04:25)
12. Soul Planet (Instrumental) (15:14)

foobar2000 1.3.7 / Dynamic Range Meter 1.1.1
log date: 2018-06-22 15:42:08

––––––––––––––––––––––––––––––––––––––––
Analyzed: The Orb / No Sounds Are Out Of Bounds (Deluxe)
––––––––––––––––––––––––––––––––––––––––

DR Peak RMS Duration Track
––––––––––––––––––––––––––––––––––––––––
DR7 -0.95 dB -10.40 dB 3:57 01-The End of the End
DR8 -0.95 dB -12.13 dB 5:05 02-Wish I Had a Pretty Dog
DR9 -0.95 dB -11.66 dB 5:55 03-Rush Hill Road (feat. Hollie Cook)
DR10 -0.95 dB -13.09 dB 7:31 04-Pillow Fight @ Shag Mountain (feat. Jah Wobble)
DR10 -0.95 dB -13.19 dB 5:26 05-Isle of Horns
DR7 -1.40 dB -11.01 dB 3:25 06-Wolfbane
DR9 -0.95 dB -12.95 dB 8:33 07-Other Blue Worlds
DR9 -0.95 dB -12.17 dB 3:30 08-Doughnuts Forever (feat. Jah Wobble)
DR13 -1.51 dB -18.68 dB 1:42 09-Drift
DR7 -0.95 dB -11.56 dB 5:47 10-Easy on the Onions
DR10 -1.40 dB -14.47 dB 4:24 11-Ununited States
DR10 -0.95 dB -14.74 dB 15:11 12-Soul Planet
DR11 -0.48 dB -14.34 dB 4:07 13-The End of the End (Instrumental)
DR11 -0.31 dB -14.41 dB 5:14 14-I Wish I Had a Pretty Dog (Instrumental)
DR11 -0.36 dB -13.33 dB 5:58 15-Rush Hill Road (Instrumental)
DR11 -0.70 dB -14.11 dB 7:36 16-Pillow Flight @ Shag Mountain (Instrumental)
DR15 0.00 dB -18.42 dB 5:27 17-Isle of Horns (Instrumental)
DR11 -0.34 dB -13.76 dB 3:22 18-Wolfbane (Instrumental)
DR11 0.00 dB -15.11 dB 8:05 19-Other Blue Worlds (Instrumental)
DR12 -0.33 dB -14.49 dB 3:38 20-Dougnuts Forever (Instrumental)
DR11 -10.28 dB -22.91 dB 1:38 21-Drift (Instrumental)
DR11 -0.44 dB -14.71 dB 5:48 22-Easy on the Onions (Instrumental)
DR11 -1.05 dB -15.65 dB 4:25 23-Ununited States (Instrumental)
DR16 -0.70 dB -20.69 dB 15:14 24-Soul Planet (Instrumental)
––––––––––––––––––––––––––––––––––––––––

Number of tracks: 24
Official DR value: DR10

Samplerate: 44100 Hz
Channels: 2
Bits per sample: 24
Bitrate: 1269 kbps
Codec: FLAC
================================================================================


Thanks to the Original customer.
SitemapiPad Games | Mars (2016) Season 2 Episode 5 | Rings Dubbed Hindi