Blandine Staskiewicz, Les Accents & Thibault Noally - Oratorio (2018) [Official Digital Download 24/96]

Posted By: SERTiL
Blandine Staskiewicz, Les Accents & Thibault Noally - Oratorio (2018) [Official Digital Download 24/96]

Blandine Staskiewicz, Les Accents & Thibault Noally - Oratorio (2018)
FLAC (tracks) 24-bit/96 kHz | Time - 68:00 minutes | 1.20 GB
Studio Master, Official Digital Download | Artwork: Digital Booklet

Since its foundation in 2014, Thibault Noally’s ensemble Les Accents brings to life rare works from the Italian Baroque era: in particular the vocal repertoire of the 17th and 18th centuries. Their new record features unpublished extracts of oratorios. Born at the same time and made of the same theatrical stuff as its opera brother, the oratorio, a lyric and dramatic work without staging, also moves the crowds! And its heroines Athalie and Judith have the same temper as their operatic counterparts.

The virtuoso arias of Caldara, Scarlatti (father) or Porpora performed by the mezzo-soprano Blandine Staskiewicz, full of baroque ornaments and jubilant flights, also testify to the instrumental ardor of the genre: the dramatic effects of the orchestra, the alternation of allegros and adagios, and the various of playing modes marry the movements of the passions of these characters with great intensity.

Tracklist:
1. La Castita al Cimento: "Numi offesi di furor" 02:29
2. Maddalena à piedi di Cristo: "Per il mar del pianto mio" 05:05
3. La Converzione di Maddalena: "Cor imbelle à due nemici" 03:10
4. Atalia: "Ombre, cure, sospetti" 03:05
5. Atalia: "Terrori d'Averno" 03:19
6. Il Trionfo della Divina Giustizia: "Vanne o Sol d'eterna luce" 08:05
7. San Casimiro rè di Polonia: "Miei spirti guerrieri" 02:39
8. La Converzione di Maddalena: "Al sibilar tremendo" 01:04
9. La Converzione di Maddalena: "In tepidi fiumi" 02:38
10. Il Trionfo della Divina Giustizia: "Ecco già l'orrenda tromba" 06:47
11. Blandine Staskiewicz, Les Accents & Thibault Noally – Giuditta: "Del pianto vostro" 00:56
12. Giuditta: "Posso e voglio" 01:19
13. Santa Francesca Romana: "Miro che fiumicello" 08:16
14. Il Martirio di San Giovanni: "Vanne nel vicin tempio" 01:01
15. Il Martirio di San Giovanni: "Fremer da lunge io sento" 07:35
16. Il Gardino di Rose: "Mentre io godo" 05:30
17. Il Martirio di San Giovanni: "Son gli strazi… Io spiro e volo" 05:02

Personnel:
Blandine Staskiewicz, soprano
Anthea Pichanick, contralto
Ensemble Les Accents
Thibault Noally, direction

foobar2000 1.3.7 / Dynamic Range Meter 1.1.1
log date: 2018-06-07 00:12:59

––––––––––––––––––––––––––––––––––––––––
Analyzed: Blandine Staskiewicz, Les Accents & Thibault Noally / Oratorio
––––––––––––––––––––––––––––––––––––––––

DR Peak RMS Duration Track
––––––––––––––––––––––––––––––––––––––––
DR11 -0.81 dB -14.05 dB 2:29 01-La Castita al Cimento: "Numi offesi di furor"
DR12 -1.89 dB -18.18 dB 5:06 02-Maddalena à piedi di Cristo: "Per il mar del pianto mio"
DR11 -0.78 dB -15.67 dB 3:10 03-La Converzione di Maddalena: "Cor imbelle à due nemici"
DR11 -1.26 dB -15.93 dB 3:05 04-Atalia: "Ombre, cure, sospetti"
DR12 -0.82 dB -15.49 dB 3:19 05-Atalia: "Terrori d'Averno"
DR11 -1.97 dB -17.54 dB 8:05 06-Il Trionfo della Divina Giustizia: "Vanne o Sol d'eterna luce"
DR11 -1.07 dB -15.52 dB 2:40 07-San Casimiro rè di Polonia: "Miei spirti guerrieri"
DR12 -1.45 dB -16.63 dB 1:05 08-La Converzione di Maddalena: "Al sibilar tremendo"
DR11 -1.31 dB -18.79 dB 2:38 09-La Converzione di Maddalena: "In tepidi fiumi"
DR11 -0.83 dB -14.91 dB 6:47 10-Il Trionfo della Divina Giustizia: "Ecco già l'orrenda tromba"
DR10 -1.13 dB -14.66 dB 0:56 11-Giuditta: "Del pianto vostro"
DR10 -0.96 dB -13.17 dB 1:20 12-Giuditta: "Posso e voglio"
DR12 -1.37 dB -16.68 dB 8:16 13-Santa Francesca Romana: "Miro che fiumicello"
DR11 -1.54 dB -15.36 dB 1:02 14-Il Martirio di San Giovanni: "Vanne nel vicin tempio"
DR11 -0.72 dB -14.36 dB 7:36 15-Il Martirio di San Giovanni: "Fremer da lunge io sento"
DR12 -1.93 dB -19.99 dB 5:30 16-Il Gardino di Rose: "Mentre io godo"
DR11 -0.74 dB -15.15 dB 5:02 17-Il Martirio di San Giovanni: "Son gli strazi… Io spiro e volo"
––––––––––––––––––––––––––––––––––––––––

Number of tracks: 17
Official DR value: DR11

Samplerate: 96000 Hz
Channels: 2
Bits per sample: 24
Bitrate: 2470 kbps
Codec: FLAC
================================================================================


Thanks to the Original customer.
SitemapSon Mesaj | Akanesasu Shoujo – Episodio 07Data: 12-11-2018 | Laurel Lefkow