Ash vs Evil Dead S03E09

Posted By: Tavaz
720p (HD) / WEBRip IMDb
Ash vs Evil Dead S03E09

Ash vs Evil Dead S03E09
WEB-DL | MKV | 1280x720 | German / English | H264 @ 3542 kbps | AC-3 @ 640 kbps | 28 min 8 s | 971 MiB
Subtitles: English
Genre: Action, Komödie, Fantasy, Horror

Fast drei Jahrzehnte sind seit Kettensägenmassakern, Necronomicon und Splatterfun ins Land gezogen - jetzt ist es an der Zeit für Ash, den legendären Helden aus Sam Raimis "Tanz der Teufel"-Trilogie, die Kettensäge wieder zu entstauben. Denn abermals dringt das unsagbar Böse in Gestalt zahlloser Dämonen in unsere Welt und stellt unsere bisherige Vorstellung von blutleeren Horror-Serien vollkommen auf den Kopf.

S03E09 German DL - 720p HD.mkv (970.8 MB)



General
Unique ID : 185898590553564812876633762156918100088 (0x8BDAC426C63A39DAA7D40E4D34E05078)
Complete name : ./Die Teufel tanzen wieder S03E09 German DL - 720p HD/S03E09 German DL - 720p HD.mkv
Format : Matroska
Format version : Version 4 / Version 2
File size : 971 MiB
Duration : 28 min 8 s
Overall bit rate mode : Variable
Overall bit rate : 4 824 kb/s
Encoded date : UTC 2018-04-24 13:43:52
Writing application : mkvmerge v8.3.0 ('Over the Horizon') 64bit
Writing library : libebml v1.3.1 + libmatroska v1.4.2

Video
ID : 1
Format : AVC
Format/Info : Advanced Video Codec
Format profile : High@L3.1
Format settings : CABAC / 5 Ref Frames
Format settings, CABAC : Yes
Format settings, RefFrames : 5 frames
Codec ID : V_MPEG4/ISO/AVC
Duration : 28 min 7 s
Bit rate mode : Variable
Bit rate : 3 542 kb/s
Maximum bit rate : 4 500 kb/s
Width : 1 280 pixels
Height : 720 pixels
Display aspect ratio : 16:9
Frame rate mode : Constant
Frame rate : 23.976 (24000/1001) FPS
Color space : YUV
Chroma subsampling : 4:2:0
Bit depth : 8 bits
Scan type : Progressive
Bits/(Pixel*Frame) : 0.160
Stream size : 713 MiB (73%)
Language : English
Default : Yes
Forced : No
Color range : Limited
Color primaries : BT.709
Transfer characteristics : BT.709
Matrix coefficients : BT.709

Audio #1
ID : 2
Format : AC-3
Format/Info : Audio Coding 3
Format settings, Endianness : Big
Codec ID : A_AC3
Duration : 28 min 8 s
Bit rate mode : Constant
Bit rate : 640 kb/s
Channel(s) : 6 channels
Channel positions : Front: L C R, Side: L R, LFE
Sampling rate : 48.0 kHz
Frame rate : 31.250 FPS (1536 SPF)
Bit depth : 16 bits
Compression mode : Lossy
Stream size : 129 MiB (13%)
Language : German
Service kind : Complete Main
Default : Yes
Forced : No

Audio #2
ID : 3
Format : E-AC-3
Format/Info : Enhanced Audio Coding 3
Format settings, Endianness : Big
Codec ID : A_EAC3
Duration : 28 min 8 s
Bit rate mode : Constant
Bit rate : 640 kb/s
Channel(s) : 6 channels
Channel positions : Front: L C R, Side: L R, LFE
Sampling rate : 48.0 kHz
Frame rate : 187.500 FPS (256 SPF)
Compression mode : Lossy
Stream size : 129 MiB (13%)
Language : English
Service kind : Complete Main
Default : No
Forced : No

Text #1
ID : 4
Format : UTF-8
Codec ID : S_TEXT/UTF8
Codec ID/Info : UTF-8 Plain Text
Duration : 27 min 1 s
Bit rate : 45 b/s
Count of elements : 353
Stream size : 9.02 KiB (0%)
Title : English
Language : English
Default : No
Forced : No

Text #2
ID : 5
Format : UTF-8
Codec ID : S_TEXT/UTF8
Codec ID/Info : UTF-8 Plain Text
Duration : 28 min 1 s
Bit rate : 65 b/s
Count of elements : 538
Stream size : 13.4 KiB (0%)
Title : English (SDH)
Language : English
Default : No
Forced : No





Ash vs Evil Dead S03E09


Ash vs Evil Dead S03E09


Ash vs Evil Dead S03E09


Ash vs Evil Dead S03E09


Ash vs Evil Dead S03E09

All episodes

SitemapDetective Conan The Raven Chaser 2009 m-HD BluRay AAC x264-ghost.zer... | One Piece 564 | รายการ ฟังเพลงบรรเลงธรรม