Supergirl S03E22

Posted By: Tavaz
1080p (FullHD) / WEB-DL IMDb
Supergirl S03E22

Supergirl S03E22
WEB-DL | MKV | 1920x1080 | English | H264 @ 12296 kbps | E-AC-3 @ 640 kbps | 42 min 16 s | 3.82 GiB
Subtitles: English
Genre: Azione, Avventura, Dramma, Fantascienza

Kara Zor-El (Melissa Benoist), nata sul pianeta Kripton, viene spedita sulla Terra assieme a suo cugino Kal-El (poi noto come Superman) dai suoi genitori Alura (Laura Benanti) e Zor-El (Robert Gant). Adottata, accudita e cresciuta per 12 anni dalla famiglia Danvers, mentre lavora come giornalista per la testata giornalistica CatCo, diretta dalla superficiale Cat Grant (Calissa Flockhart ), rivela i propri poteri soprannaturali cercando di salvare da un disastro aereo la sorella acquisita Alex (Chyler Leigh), decidendo allora di trasformarsi in supereroina e proteggere i cittadini di National City. Nonostante le raccomandazioni ricevute, Kara decide poco avvedutamente di rivelare il suo segreto, cosa che la porterà ad affrontare di volta in volta nemici e alieni, sotto le mentite spoglie di esseri umani, sempre più determinati ad eliminarla. Tra questi vi è anche la zia Astra, che vuole conquistare la terra e vendicarsi di Alura, rea di averla fatta imprigionare su Krypton. Kara però, grazie anche al sostegno del suo collega fotografo Will (Jimmy Olsen), della sorella e del capo del Dipartimento di Operazioni Extranormali Hank Henshaw (David Harewood), riuscirà ad ostacolare i suoi tentativi e a frenare i suoi diabolici piani.

dfe922822358475db6c2cf5630411a99.mkv (3.8 GB)



General
Complete name : ./dfe922822358475db6c2cf5630411a99.mkv
Format : Matroska
Format version : Version 4 / Version 2
File size : 3.82 GiB
Duration : 42 min 16 s
Overall bit rate : 12.9 Mb/s
Encoded date : UTC 2018-06-12 13:57:28
Writing application : mkvmerge v9.8.0 ('Kuglblids') 64bit
Writing library : libebml v1.3.4 + libmatroska v1.4.5

Video
ID : 1
Format : AVC
Format/Info : Advanced Video Codec
Format profile : High@L4
Format settings : CABAC / 4 Ref Frames
Format settings, CABAC : Yes
Format settings, RefFrames : 4 frames
Codec ID : V_MPEG4/ISO/AVC
Duration : 42 min 16 s
Bit rate : 12.3 Mb/s
Width : 1 920 pixels
Height : 1 080 pixels
Display aspect ratio : 16:9
Frame rate mode : Constant
Frame rate : 23.976 (24000/1001) FPS
Color space : YUV
Chroma subsampling : 4:2:0
Bit depth : 8 bits
Scan type : Progressive
Bits/(Pixel*Frame) : 0.247
Stream size : 3.63 GiB (95%)
Default : Yes
Forced : No
Color range : Limited
Color primaries : BT.709
Transfer characteristics : BT.709
Matrix coefficients : BT.709

Audio
ID : 2
Format : E-AC-3
Format/Info : Enhanced Audio Coding 3
Format settings, Endianness : Big
Codec ID : A_EAC3
Duration : 42 min 16 s
Bit rate mode : Constant
Bit rate : 640 kb/s
Channel(s) : 6 channels
Channel positions : Front: L C R, Side: L R, LFE
Sampling rate : 48.0 kHz
Frame rate : 187.500 FPS (256 SPF)
Compression mode : Lossy
Stream size : 194 MiB (5%)
Language : English
Service kind : Complete Main
Default : Yes
Forced : No

Text #1
ID : 3
Format : UTF-8
Codec ID : S_TEXT/UTF8
Codec ID/Info : UTF-8 Plain Text
Duration : 41 min 18 s
Bit rate : 66 b/s
Count of elements : 648
Stream size : 20.2 KiB (0%)
Language : English
Default : No
Forced : No

Text #2
ID : 4
Format : UTF-8
Codec ID : S_TEXT/UTF8
Codec ID/Info : UTF-8 Plain Text
Duration : 41 min 28 s
Bit rate : 68 b/s
Count of elements : 680
Stream size : 20.9 KiB (0%)
Title : SDH
Language : English
Default : No
Forced : No





Supergirl S03E22


Supergirl S03E22


Supergirl S03E22


Supergirl S03E22


Supergirl S03E22

All episodes

Sitemapnew year | Johnny Depp | Enterprise Networking, Servers