Supergirl S03E23

Posted By: Tavaz
Supergirl S03E23

Supergirl S03E23
MKV | 640x480 | H264 @ 404 kbps | MPEG Audio @ 128 kbps | 42 min 26 s | 165 MiB
Genre: Action, Adventure, Drama, Science Fiction

Twenty-four-year-old Kara Zor-El, who was taken in by the Danvers family when she was 13 after being sent away from Krypton, must learn to embrace her powers after previously hiding them. The Danvers teach her to be careful with her powers, until she has to reveal them during an unexpected disaster, setting her on her journey of heroism.

1d8d2751b47246b79a534078a623b51d.mkv (165.0 MB)



General
Unique ID : 161526888011503575319043391648452342390 (0x7984F2718233D46C6256A7755E347276)
Complete name : ./1d8d2751b47246b79a534078a623b51d.mkv
Format : Matroska
Format version : Version 4 / Version 2
File size : 165 MiB
Duration : 42 min 26 s
Overall bit rate : 543 kb/s
Writing application : Lavf57.79.100
Writing library : Lavf57.79.100
ErrorDetectionType : Per level 1

Video
ID : 1
Format : AVC
Format/Info : Advanced Video Codec
Format profile : High@L3
Format settings : CABAC / 4 Ref Frames
Format settings, CABAC : Yes
Format settings, RefFrames : 4 frames
Codec ID : V_MPEG4/ISO/AVC
Duration : 42 min 26 s
Bit rate : 405 kb/s
Width : 640 pixels
Height : 480 pixels
Display aspect ratio : 16:9
Frame rate mode : Constant
Frame rate : 23.976 (24000/1001) FPS
Color space : YUV
Chroma subsampling : 4:2:0
Bit depth : 8 bits
Scan type : Progressive
Bits/(Pixel*Frame) : 0.055
Stream size : 123 MiB (74%)
Writing library : x264 core 152 r2851 ba24899
Encoding settings : cabac=1 / ref=1 / deblock=1:0:0 / analyse=0x3:0x113 / me=hex / subme=2 / psy=1 / psy_rd=1.00:0.00 / mixed_ref=0 / me_range=16 / chroma_me=1 / trellis=0 / 8x8dct=1 / cqm=0 / deadzone=21,11 / fast_pskip=1 / chroma_qp_offset=0 / threads=12 / lookahead_threads=3 / sliced_threads=0 / nr=0 / decimate=1 / interlaced=0 / bluray_compat=0 / constrained_intra=0 / bframes=3 / b_pyramid=2 / b_adapt=1 / b_bias=0 / direct=1 / weightb=1 / open_gop=0 / weightp=1 / keyint=250 / keyint_min=23 / scenecut=40 / intra_refresh=0 / rc_lookahead=10 / rc=crf / mbtree=1 / crf=23.0 / qcomp=0.60 / qpmin=0 / qpmax=69 / qpstep=4 / ip_ratio=1.40 / aq=1:1.00
Default : Yes
Forced : No
Statistics Tags Issue : mkvmerge v21.0.0 ('Tardigrades Will Inherit The Earth') 64-bit 2018-06-19 05:31:57 / Lavf57.79.100
FromStats_BitRate : 3367766
FromStats_Duration : 00:42:26.651000000
FromStats_FrameCount : 61056
FromStats_StreamSize : 1072020578

Audio
ID : 2
Format : MPEG Audio
Format version : Version 1
Format profile : Layer 3
Format settings : Joint stereo / MS Stereo
Mode : Joint stereo
Mode extension : MS Stereo
Codec ID : A_MPEG/L3
Codec ID/Hint : MP3
Duration : 42 min 26 s
Bit rate mode : Constant
Bit rate : 128 kb/s
Channel(s) : 2 channels
Sampling rate : 48.0 kHz
Compression mode : Lossy
Delay relative to video : -106 ms
Stream size : 38.9 MiB (24%)
Writing library : LAME3.99.5
Default : Yes
Forced : No
Statistics Tags Issue : mkvmerge v21.0.0 ('Tardigrades Will Inherit The Earth') 64-bit 2018-06-19 05:31:57 / Lavf57.79.100
FromStats_BitRate : 127995
FromStats_Duration : 00:42:26.730000000
FromStats_FrameCount : 119373
FromStats_StreamSize : 40745983





Supergirl S03E23


Supergirl S03E23


Supergirl S03E23


Supergirl S03E23


Supergirl S03E23

All episodes

SitemapBaixar Filme | Contact & Abuse | Lista Film Horror